+ ShareSpark.net »  :::: Bollywood Zone » Indian PC Videos
|- Sirf Tum (1999) Hindi 1080p Untouched Webhd AVC {Music Video} ~ Special26


Amazon Pantry Offer
  • Sirf Tum (1999) Hindi 1080p Untouched Webhd AVC {Music Video} ~ Special26 5 1
Currently:  

Sirf Tum (1999) Hindi 1080p Untouched Webhd AVC {Music Video} ~ Special26

0 Members and 1 Guest are viewing this topic.

December 08, 2018, 10:44:01 AM
  • Conqueror
  • Legend Member
  • *****
  • Topic Author
  • Thank You: 5170
  • Reputation: 1080
  • Activity:
    100%
  • Country: np
  • Posts: 1787
  • Topics: 1534
  • Join Date: Jul 2016
  • Love Forever !!
Sirf Tum (1999) Hindi 1080p Untouched Webhd AVC {Music Video} ~ Special26



 :info:
Format                         : Matroska
Format version                 : Version 4
File size                      : 867 MB
Overall bit rate               : 3 157 kb/s


Video
ID                             : 1
Format                         : AVC
Format/Info                    : Advanced Video Codec
Format profile                 : [email protected]
Format settings                : CABAC / 4 Ref Frames
Format settings, CABAC         : Yes
Format settings, ReFrames      : 4 frames
Codec ID                       : V_MPEG4/ISO/AVC
Bit rate                       : 3 090 kb/s
Width                          : 1 920 pixels
Height                         : 1 080 pixels
Display aspect ratio           : 16:9
Frame rate mode                : Constant
Frame rate                     : 25.000 FPS
Color space                    : YUV
Chroma subsampling             : 4:2:0
Bit depth                      : 8 bits
Scan type                      : Progressive
Bits/(Pixel*Frame)             : 0.060
Stream size                    : 161 MiB (98%)
Default                        : Yes
Forced                         : No


Audio
ID                             : 2
Format                         : AAC LC
Format/Info                    : Advanced Audio Codec
Codec ID                       : A_AAC-2
Bit rate                       : 64.4 kb/s
Channel(s)                     : 2 channels
Channel layout                 : L R
Sampling rate                  : 48.0 kHz
Frame rate                     : 46.875 FPS (1024 SPF)
Compression mode               : Lossy
Delay relative to video        : 5 ms
Stream size                    : 3.36 MiB (2%)
Default                        : Yes
Forced                         : No



 :ss:


























 :download:

Share this topic on FacebookShare this topic on GoogleShare this topic on MySpaceShare this topic on TwitterShare this topic on Yahoo

« Last Edit: January 09, 2019, 02:59:23 PM by Special26 »


Thanks given by:


December 08, 2018, 04:01:45 PM
Reply #1
  • Semi Newbie
  • **
  • Thank You: 0
  • Reputation: 0
  • Activity:
    2.6%
  • Country: bd
  • Posts: 13
  • Topics: 0
  • Join Date: Oct 2018
  • ShareSpark Member
You are the best bhai.please upload Taarzan: The Wonder Car 2004 Hindi 1080p Music Video.Please Bhai.

December 08, 2018, 04:33:38 PM
Reply #2
  • Semi Newbie
  • **
  • Thank You: 0
  • Reputation: 0
  • Activity:
    1.8%
  • Country: in
  • Posts: 6
  • Topics: 0
  • Join Date: Oct 2018
  • ShareSpark Member
:hi: :yahoo:  :dance:  :clap:

SUPER BOSS  :thank:  :10on10:

please upload this movie song
movie is DILWALE (1994)
Thanks..................................//////////

January 07, 2019, 09:21:08 PM
Reply #3
  • Senior Member
  • ***
  • Thank You: 0
  • Reputation: 8
  • Activity:
    37.4%
  • Country: in
  • Posts: 210
  • Topics: 0
  • Join Date: Oct 2016
  • ShareSpark Member

January 09, 2019, 03:00:53 PM
Reply #4
  • Conqueror
  • Legend Member
  • *****
  • Topic Author
  • Thank You: 5170
  • Reputation: 1080
  • Activity:
    100%
  • Country: np
  • Posts: 1787
  • Topics: 1534
  • Join Date: Jul 2016
  • Love Forever !!

January 09, 2019, 05:49:42 PM
Reply #5
  • Senior Member
  • ***
  • Thank You: 0
  • Reputation: 8
  • Activity:
    37.4%
  • Country: in
  • Posts: 210
  • Topics: 0
  • Join Date: Oct 2016
  • ShareSpark Member

Tags: Request 
 

Related Topics

  Subject / Started by Replies Last post
1 Replies
472 Views
Last post January 07, 2019, 11:55:55 PM
by MayurSuccess
2 Replies
645 Views
Last post January 12, 2019, 04:03:30 PM
by Special26
3 Replies
638 Views
Last post January 10, 2019, 09:57:26 PM
by MayurSuccess
3 Replies
598 Views
Last post January 09, 2019, 05:59:46 PM
by MayurSuccess
4 Replies
317 Views
Last post January 17, 2019, 08:30:51 PM
by javedn




Back to top