+ ShareSpark.net »  :::: Bollywood Zone » Indian PC Videos
|- Raaz (2002) Hindi 1080p Untouched Webhd AVC {Music Video} ~ Special26


Samsung Galaxy 8

Raaz (2002) Hindi 1080p Untouched Webhd AVC {Music Video} ~ Special26

0 Members and 1 Guest are viewing this topic.

December 11, 2018, 10:49:24 AM
  • Conqueror
  • Legend Member
  • *****
  • Topic Author
  • Thank You: 5170
  • Reputation: 1080
  • Activity:
    100%
  • Country: np
  • Posts: 1787
  • Topics: 1534
  • Join Date: Jul 2016
  • Love Forever !!
Raaz (2002) Hindi 1080p Untouched Webhd AVC {Music Video} ~ Special26




 :info:
Format                         : Matroska
Format version                 : Version 4
File size                      : 1.28 GB
Overall bit rate               : 8 108 kb/s


Video
ID                             : 1
Format                         : AVC
Format/Info                    : Advanced Video Codec
Format profile                 : [email protected]
Format settings                : CABAC / 4 Ref Frames
Format settings, CABAC         : Yes
Format settings, ReFrames      : 4 frames
Format settings, GOP           : M=1, N=30
Codec ID                       : V_MPEG4/ISO/AVC
Bit rate                       : 7 659 kb/s
Width                          : 1 920 pixels
Height                         : 1 080 pixels
Display aspect ratio           : 16:9
Frame rate mode                : Variable
Frame rate                     : 29.970 (29970/1000) FPS
Original frame rate            : 29.970 (30000/1001) FPS
Color space                    : YUV
Chroma subsampling             : 4:2:0
Bit depth                      : 8 bits
Scan type                      : Progressive
Bits/(Pixel*Frame)             : 0.123
Stream size                    : 329 MiB (94%)
Default                        : Yes
Forced                         : No


Audio
ID                             : 2
Format                         : AC-3
Format/Info                    : Audio Coding 3
Commercial name                : Dolby Digital
Codec ID                       : A_AC3
Bit rate mode                  : Constant
Bit rate                       : 448 kb/s
Channel(s)                     : 6 channels
Channel layout                 : L R C LFE Ls Rs
Sampling rate                  : 48.0 kHz
Frame rate                     : 31.250 FPS (1536 SPF)
Bit depth                      : 16 bits
Compression mode               : Lossy
Delay relative to video        : 5 ms
Stream size                    : 19.2 MiB (6%)
Title                          : 5.1
Language                       : Hindi
Service kind                   : Complete Main
Default                        : Yes
Forced                         : No


Text
ID                             : 3
Format                         : UTF-8
Codec ID                       : S_TEXT/UTF8
Codec ID/Info                  : UTF-8 Plain Text
Bit rate                       : 38 b/s
Count of elements              : 43
Stream size                    : 1.34 KiB (0%)
Language                       : English
Default                        : Yes
Forced                         : No



 :ss:
































 :download:

Share this topic on FacebookShare this topic on GoogleShare this topic on MySpaceShare this topic on TwitterShare this topic on Yahoo

« Last Edit: January 10, 2019, 09:33:22 AM by Special26 »


Thanks given by:


January 07, 2019, 09:19:48 PM
Reply #1
  • Senior Member
  • ***
  • Thank You: 0
  • Reputation: 8
  • Activity:
    37.4%
  • Country: in
  • Posts: 210
  • Topics: 0
  • Join Date: Oct 2016
  • ShareSpark Member

January 10, 2019, 09:35:49 AM
Reply #2
  • Conqueror
  • Legend Member
  • *****
  • Topic Author
  • Thank You: 5170
  • Reputation: 1080
  • Activity:
    100%
  • Country: np
  • Posts: 1787
  • Topics: 1534
  • Join Date: Jul 2016
  • Love Forever !!

January 10, 2019, 09:57:26 PM
Reply #3
  • Senior Member
  • ***
  • Thank You: 0
  • Reputation: 8
  • Activity:
    37.4%
  • Country: in
  • Posts: 210
  • Topics: 0
  • Join Date: Oct 2016
  • ShareSpark Member

Tags:
 

Related Topics

  Subject / Started by Replies Last post
2 Replies
647 Views
Last post November 29, 2018, 06:14:33 AM
by gprem54
2 Replies
691 Views
Last post November 29, 2018, 06:10:23 AM
by gprem54
1 Replies
472 Views
Last post January 07, 2019, 11:55:55 PM
by MayurSuccess
2 Replies
645 Views
Last post January 12, 2019, 04:03:30 PM
by Special26
4 Replies
317 Views
Last post January 17, 2019, 08:30:51 PM
by javedn




Back to top