+ ShareSpark.net »  :::: Bollywood Zone » Indian PC Videos
|- Barsaat (1995) Hindi 1080p Untouched Webhd AVC {Music Video} ~ Special26


Electroncs Sale

Barsaat (1995) Hindi 1080p Untouched Webhd AVC {Music Video} ~ Special26

0 Members and 1 Guest are viewing this topic.

December 13, 2018, 11:14:00 AM
  • Conqueror
  • Legend Member
  • *****
  • Topic Author
  • Thank You: 5170
  • Reputation: 1080
  • Activity:
    100%
  • Country: np
  • Posts: 1787
  • Topics: 1534
  • Join Date: Jul 2016
  • Love Forever !!
Barsaat (1995) Hindi 1080p Untouched Webhd AVC {Music Video} ~ Special26




 :info:
Format                         : Matroska
Format version                 : Version 4
File size                      : 1.23 GB
Overall bit rate mode          : Variable
Overall bit rate               : 6 705 kb/s


Video
ID                             : 1
Format                         : AVC
Format/Info                    : Advanced Video Codec
Format profile                 : [email protected]
Format settings                : CABAC / 3 Ref Frames
Format settings, CABAC         : Yes
Format settings, ReFrames      : 3 frames
Codec ID                       : V_MPEG4/ISO/AVC
Bit rate mode                  : Variable
Bit rate                       : 6 574 kb/s
Maximum bit rate               : 9 735 kb/s
Width                          : 1 920 pixels
Height                         : 1 080 pixels
Display aspect ratio           : 16:9
Frame rate mode                : Constant
Frame rate                     : 25.000 FPS
Color space                    : YUV
Chroma subsampling             : 4:2:0
Bit depth                      : 8 bits
Scan type                      : Progressive
Bits/(Pixel*Frame)             : 0.127
Stream size                    : 210 MiB (98%)
Language                       : Hindi
Default                        : Yes
Forced                         : No


Audio
ID                             : 2
Format                         : E-AC-3
Format/Info                    : Enhanced AC-3
Commercial name                : Dolby Digital Plus
Codec ID                       : A_EAC3
Bit rate mode                  : Constant
Bit rate                       : 128 kb/s
Channel(s)                     : 2 channels
Channel layout                 : L R
Sampling rate                  : 48.0 kHz
Frame rate                     : 31.250 FPS (1536 SPF)
Compression mode               : Lossy
Delay relative to video        : 16 ms
Stream size                    : 4.09 MiB (2%)
Language                       : Hindi
Service kind                   : Complete Main
Default                        : No
Forced                         : No


Text #1
ID                             : 3
Format                         : UTF-8
Codec ID                       : S_TEXT/UTF8
Codec ID/Info                  : UTF-8 Plain Text
Duration                       : 3 min 5 s
Bit rate                       : 72 b/s
Count of elements              : 33
Stream size                    : 1.65 KiB (0%)
Language                       : English
Default                        : No
Forced                         : No


Text #2
ID                             : 4
Format                         : UTF-8
Codec ID                       : S_TEXT/UTF8
Codec ID/Info                  : UTF-8 Plain Text
Duration                       : 3 min 5 s
Bit rate                       : 106 b/s
Count of elements              : 33
Stream size                    : 2.41 KiB (0%)
Language                       : Bulgarian
Default                        : No
Forced                         : No



 :ss:


























 :download:

Share this topic on FacebookShare this topic on GoogleShare this topic on MySpaceShare this topic on TwitterShare this topic on Yahoo



Thanks given by:


Tags:
 

Related Topics

  Subject / Started by Replies Last post
1 Replies
471 Views
Last post January 07, 2019, 11:55:55 PM
by MayurSuccess
2 Replies
644 Views
Last post January 12, 2019, 04:03:30 PM
by Special26
5 Replies
666 Views
Last post January 09, 2019, 05:49:42 PM
by MayurSuccess
3 Replies
637 Views
Last post January 10, 2019, 09:57:26 PM
by MayurSuccess
4 Replies
317 Views
Last post January 17, 2019, 08:30:51 PM
by javedn




Back to top