+ ShareSpark.net »  :::: Bollywood Zone » Indian PC Videos
|- Mohra (1994) Hindi 1080p Untouched Webhd AVC {Music Video} ~ Special26


Redmi 6A
  • Mohra (1994) Hindi 1080p Untouched Webhd AVC {Music Video} ~ Special26 5 1
Currently:  

Mohra (1994) Hindi 1080p Untouched Webhd AVC {Music Video} ~ Special26

0 Members and 1 Guest are viewing this topic.

December 14, 2018, 11:08:57 AM
  • Conqueror
  • Legend Member
  • *****
  • Topic Author
  • Thank You: 5170
  • Reputation: 1080
  • Activity:
    100%
  • Country: np
  • Posts: 1787
  • Topics: 1534
  • Join Date: Jul 2016
  • Love Forever !!
Mohra (1994) Hindi 1080p Untouched Webhd AVC {Music Video} ~ Special26




 :info:
Format                         : Matroska
Format version                 : Version 4
File size                      : 772 MB
Overall bit rate               : 3 238 kb/s


Video
ID                             : 1
Format                         : AVC
Format/Info                    : Advanced Video Codec
Format profile                 : [email protected]
Format settings                : CABAC / 4 Ref Frames
Format settings, CABAC         : Yes
Format settings, ReFrames      : 4 frames
Codec ID                       : V_MPEG4/ISO/AVC
Bit rate                       : 3 171 kb/s
Width                          : 1 920 pixels
Height                         : 1 080 pixels
Display aspect ratio           : 16:9
Frame rate mode                : Constant
Frame rate                     : 25.000 FPS
Color space                    : YUV
Chroma subsampling             : 4:2:0
Bit depth                      : 8 bits
Scan type                      : Progressive
Bits/(Pixel*Frame)             : 0.061
Stream size                    : 85.4 MiB (98%)
Default                        : Yes
Forced                         : No


Audio
ID                             : 2
Format                         : AAC LC
Format/Info                    : Advanced Audio Codec
Codec ID                       : A_AAC-2
Bit rate                       : 64.4 kb/s
Channel(s)                     : 2 channels
Channel layout                 : L R
Sampling rate                  : 48.0 kHz
Frame rate                     : 46.875 FPS (1024 SPF)
Compression mode               : Lossy
Delay relative to video        : 11 ms
Stream size                    : 1.73 MiB (2%)
Default                        : Yes
Forced                         : No



 :ss:
























 :download:

Share this topic on FacebookShare this topic on GoogleShare this topic on MySpaceShare this topic on TwitterShare this topic on Yahoo

« Last Edit: January 08, 2019, 05:46:30 PM by Special26 »


Thanks given by:


December 14, 2018, 01:19:24 PM
Reply #1
  • Begginer
  • **
  • Thank You: 0
  • Reputation: 0
  • Activity:
    3.4%
  • Country: in
  • Posts: 51
  • Topics: 0
  • Join Date: Nov 2013
  • ShareSpark Member
Looking for multichannel like 5.1 audio for this awesome songs.

January 07, 2019, 09:18:12 PM
Reply #2
  • Senior Member
  • ***
  • Thank You: 0
  • Reputation: 8
  • Activity:
    37.4%
  • Country: in
  • Posts: 210
  • Topics: 0
  • Join Date: Oct 2016
  • ShareSpark Member

January 08, 2019, 05:49:16 PM
Reply #3
  • Conqueror
  • Legend Member
  • *****
  • Topic Author
  • Thank You: 5170
  • Reputation: 1080
  • Activity:
    100%
  • Country: np
  • Posts: 1787
  • Topics: 1534
  • Join Date: Jul 2016
  • Love Forever !!

January 08, 2019, 05:58:24 PM
Reply #4
  • Senior Member
  • ***
  • Thank You: 0
  • Reputation: 8
  • Activity:
    37.4%
  • Country: in
  • Posts: 210
  • Topics: 0
  • Join Date: Oct 2016
  • ShareSpark Member

Tags:
 

Related Topics

  Subject / Started by Replies Last post
2 Replies
647 Views
Last post November 29, 2018, 06:14:33 AM
by gprem54
1 Replies
472 Views
Last post January 07, 2019, 11:55:55 PM
by MayurSuccess
2 Replies
645 Views
Last post January 12, 2019, 04:03:30 PM
by Special26
5 Replies
667 Views
Last post January 09, 2019, 05:49:42 PM
by MayurSuccess
3 Replies
639 Views
Last post January 10, 2019, 09:57:26 PM
by MayurSuccess




Back to top